Krtek Taupek La petite taupe intégrale 62 épisodes (1957-2002)

Téléchargement & Détails

Télécharger Télécharger le torrent
Seeders 22 Leechers 0 Complétés 415
Informations Voir les informations
Fichiers 64 - Voir les fichiers

Présentation

Ajouter à mes favoris Voir le NFO Signaler
Taupek, la petite taupe
112621-10.jpg


information_serie.png

Statut : Ended
Acteurs : Zdenek Miler, Antonín Jedlicka
Genre : Animation, Children, Family, Fantasy
Durée : 10
Année de commencement : 1957-01-01
Plus d'information sur thetvdb : http://thetvdb.com/?tab=series&id=112621

synopsis.png
La petite taupe vit au milieu de la forêt entourée de nombreux animaux. Sa curiosité et sa joie de vivre vont l'entrainer dans des aventures rocambolesques
112621-5.jpg 

information_download.png

Nom de la release : Krtek Taupek La petite taupe intégrale 62 épisodes (1957-2002)

Format                                   : AVI
Format/Info                              : Audio Video Interleave
File size                                : 55.8 MiB
Duration                                 : 8 min 10 s
Overall bit rate                         : 954 kb/s
Writing library                          : VirtualDub build 12667/release
Video
ID                                       : 0
Format                                   : MPEG-4 Visual
Format settings, BVOP                    : Yes
Format settings, QPel                    : No
Format settings, GMC                     : No warppoints
Format settings, Matrix                  : Default (H.263)
Codec ID                                 : DIVX
Codec ID/Info                            : Project Mayo
Codec ID/Hint                            : DivX 4
Duration                                 : 8 min 10 s
Bit rate                                 : 880 kb/s
Width                                    : 720 pixels
Height                                   : 576 pixels
Display aspect ratio                     : 5:4
Frame rate                               : 25.000 FPS
Standard                                 : PAL
Color space                              : YUV
Chroma subsampling                       : 4:2:0
Bit depth                                : 8 bits
Scan type                                : Progressive
Compression mode                         : Lossy
Bits/(Pixel*Frame)                       : 0.085
Stream size                              : 51.4 MiB (92%)
Audio
ID                                       : 1
Format                                   : MPEG Audio
Format version                           : Version 1
Format profile                           : Layer 3
Codec ID                                 : 55
Codec ID/Hint                            : MP3
Duration                                 : 8 min 10 s
Bit rate mode                            : Constant
Bit rate                                 : 64.0 kb/s
Channel(s)                               : 1 channel
Sampling rate                            : 48.0 kHz
Compression mode                         : Lossy
Stream size                              : 3.74 MiB (7%)
Alignment                                : Split accross interleaves
Interleave, duration                     : 40  ms (1.00 video frame)
Interleave, preload duration             : 500  ms

Commentaires

Derniers commentaires

  • utilisateur

     Nat51

    1.28To - 802.45Go

    Ajouté par Nat51 il y a 7 mois

    Merci beaucoup
  • utilisateur

     Gnaaaapouet

    20.86To - 5.78To

    Ajouté par Gnaaaapouet il y a 7 mois

    C'est le premier animé que mon aîné a vu au cinéma. L'engouement est le même pour le second. Merci
  • utilisateur

     Dam dou

    117.14Go - 109.60Go

    Ajouté par Dam dou il y a 11 mois

    Merci beaucoup pour le seed. Ma fille de 2 ans adore!
  • utilisateur

     Toto4537

    520.34Go - 517.95Go

    Ajouté par Toto4537 il y a 1 an

    Merci beaucoup ! 
  • utilisateur

     B3rch1n

    135.06Go - 111.16Go

    Ajouté par B3rch1n il y a 1 an

    Merci beaucoup !
  • utilisateur

     Coincoin54

    3.66To - 3.10To

    Ajouté par Coincoin54 il y a 1 an

    merci beaucoup
  • utilisateur

     Jakojak

    358.82Go - 245.83Go

    Ajouté par Jakojak il y a 1 an

    Des seeders dans les parages? 
  • utilisateur

     Robderon

    10.92To - 1.94To

    Ajouté par Robderon il y a 1 an

    genial, et rare, merci beaucoup !
  • utilisateur

     Felix158

    1.28To - 903.51Go

    Ajouté par Felix158 il y a 1 an

    Génial merci beaucoup ! !!!
  • utilisateur

     Felicieaussi

    0.96To - 373.24Go

    Ajouté par Felicieaussi il y a 2 ans

    Merci beaucoup. Toujours aussi mignon.
  • utilisateur

     Crycry74

    2.48To - 2.02To

    Ajouté par Crycry74 il y a 2 ans

    Merci beaucoup!
  • utilisateur

     Harmonya1410

    15.68Go - 15.05Go

    Ajouté par Harmonya1410 il y a 3 ans

    Merci beaucoup ! 
  • utilisateur

     Snorky80

    859.79Go - 604.35Go

    Ajouté par Snorky80 il y a 3 ans

    svp un seed merci
  • utilisateur

     Emeriku

    17.18To - 9.28To

    Ajouté par Emeriku il y a 4 ans

    désolé j'ai pas laisse le pc allumé depuis longtemps, je le laisse quelque jours cette fois
  • utilisateur

     Xarnog

    15.19To - 4.02To

    Ajouté par Xarnog il y a 4 ans

    Bonjour,

    Des seeders svp